Subcategories

Alan Curtis, Il Complesso Barocco, Karina Gauvin, Marie-Nicole Lemieux - Handel: Streams of pleasure (2011)

Posted By: ArlegZ
Alan Curtis, Il Complesso Barocco, Karina Gauvin, Marie-Nicole Lemieux - Handel: Streams of pleasure (2011)

Alan Curtis, Il Complesso Barocco, Karina Gauvin, Marie-Nicole Lemieux - Handel: Streams of pleasure (2011)
EAC | FLAC | Image (Cue & Log) ~ 391 Mb | Total time: 75:07 | Scans included
Classical | Label: Naïve | # V5261 | Recorded: 2011

This much-awaited recording, where Canadian singers Marie-Nicole Lemieux and Karina Gauvin perform some of the most beautiful arias composed by Handel showcases outstanding and conniving talent. This project was born from a collaboration with Alan Curtis and his Complesso Barocco, one of the most famous and renowned ensembles in the baroque music field. The 15 arias, performed in solo or in duet, are jewels from 9 oratorios that use material from the Bible and provide a large overview of Handel's genius to depict each emotion, from tenderness to fury.

Performer:
Karina Gauvin, soprano
Marie-Nicole Lemieux, contralto
Il Complesso Barocco
Conductor - Alan Curtis

Track List:
01. Belshazzar, HWV 61: Destructive War
02. Theodora, HWV 68: To thee, Thou Glorious Son of Worth
03. Alexander Balus, HWV 65: Fury with Red Sparkling Eyes
04. Susanna, HWV 66: Lead Me Crystal Streams in Murmurs Flowings
05. Juda Maccabaeus, HWV 63: From This Dread Scene
06. Theodora, HWV 68: Streams of Pleasure Ever Flowing
07. Theodora, HWV 68: Ah ! Wither Should We Fly ?
08. Joseph and his brethren, HWV 59: Prophetic Raptures Swell My Breast
09. Joshua, HWV 64: Our Limpid Streams With Freedom Flow
10. Solomon, HWV 67: Can I See My Infant Gor'd
11. Alexander Balus, HWV 65: Fair Virtue Shall Charm Me
12. Solomon, HWV 67: Thou fair inhabitant welcome as the dawn of day
13. Hercules, HWV 60: Forgive me - My father
14. Theodora, HWV 68: But why art thou disquieted
15. Belshazzar, HWV 61: Great victor, at your feet I bow


Exact Audio Copy V1.3 from 2. September 2016

EAC extraction logfile from 11. March 2018, 17:25

Alan Curtis, Karina Gauvin, Marie-Nicole Lemieux, Il Complesso Barocco / Handel - Streams of Pleasure

Used drive : HL-DT-STDVDRAM GH24NS95 Adapter: 1 ID: 0

Read mode : Secure
Utilize accurate stream : Yes
Defeat audio cache : Yes
Make use of C2 pointers : No

Read offset correction : 6
Overread into Lead-In and Lead-Out : No
Fill up missing offset samples with silence : Yes
Delete leading and trailing silent blocks : No
Null samples used in CRC calculations : Yes
Used interface : Native Win32 interface for Win NT & 2000

Used output format : User Defined Encoder
Selected bitrate : 128 kBit/s
Quality : High
Add ID3 tag : No
Command line compressor : C:\Program Files\Exact Audio Copy\Flac\flac.exe
Additional command line options : -V -8 -T "Date=%year%" -T "Genre=%genre%" %source%


TOC of the extracted CD

Track | Start | Length | Start sector | End sector
––––––––––––––––––––––––––––-
1 | 0:00.00 | 2:27.40 | 0 | 11064
2 | 2:27.40 | 4:46.47 | 11065 | 32561
3 | 7:14.12 | 6:06.05 | 32562 | 60016
4 | 13:20.17 | 6:49.20 | 60017 | 90711
5 | 20:09.37 | 3:01.44 | 90712 | 104330
6 | 23:11.06 | 5:40.07 | 104331 | 129837
7 | 28:51.13 | 6:56.57 | 129838 | 161094
8 | 35:47.70 | 8:49.51 | 161095 | 200820
9 | 44:37.46 | 2:59.04 | 200821 | 214249
10 | 47:36.50 | 4:26.17 | 214250 | 234216
11 | 52:02.67 | 2:39.54 | 234217 | 246195
12 | 54:42.46 | 4:03.11 | 246196 | 264431
13 | 58:45.57 | 6:42.67 | 264432 | 294648
14 | 65:28.49 | 4:29.71 | 294649 | 314894
15 | 69:58.45 | 5:08.00 | 314895 | 337994


Range status and errors

Selected range

Filename C:\Program Files\Exact Audio Copy\Flac\Handel - Streams of Pleasure.wav

Peak level 96.8 %
Extraction speed 8.0 X
Range quality 99.9 %
Test CRC 5AFC750F
Copy CRC 5AFC750F
Copy OK

No errors occurred

End of status report

==== Log checksum 5EFF5207EDEA666FA48FDC111B8CEDFE6850359ABC56083632DF9EA675A19AF2 ====

Alan Curtis, Il Complesso Barocco, Karina Gauvin, Marie-Nicole Lemieux - Handel: Streams of pleasure (2011)