Subcategories

Valerie Joyce - The Look of Love: Music of Burt Bacharach (2007) {Chesky Records}

Posted By: tiburon
Valerie Joyce - The Look of Love: Music of Burt Bacharach (2007) {Chesky Records}

Valerie Joyce - The Look of Love: Music of Burt Bacharach (2007) {Chesky Records}
EAC 0.99pb4 | FLAC Image level 6 | Cue+Log | Full Scans 300dpi | 307MB + 5% Recovery
MP3 CBR 320 Kbps | 123MB + 5% Recovery
Genre: Vocal Jazz

The Look of Love is Valerie Joyce's much anticipated follow-up to her Chesky debut, featuring elegantly chic original arrangements of the classic pieces in Burt Bacharach & Hal David's catalogue. This super audio CD was recorded in multi-channel surround sound using Chesky's state of the art minimalist miking techniques and the world's finest custom-made electronics to assure the purest, most natural sounding recording available.
Track List
01. Walk on By
02. What the World Needs Now
03. Alfie
04. (They Long to Be) Close to You
05. House Is Not a Home
06. Look of Love
07. Raindrops Keep Falling on My Head
08. That's What Friends Are For
09. I Say a Little Prayer for You
10. Arthur's Theme (Best That You Can Do)

musicians
Valerie Joyce - vocals
David Hazeltine - piano
Tony Reedus - drums
Paul Gill - bass

Produced by David Chesky


Exact Audio Copy V0.99 prebeta 4 from 23. January 2008

EAC extraction logfile from 15. June 2008, 13:10

Valerie Joyce / The Look Of Love

Used drive : ASUS CRW-5224A Adapter: 1 ID: 1

Read mode : Secure
Utilize accurate stream : Yes
Defeat audio cache : Yes
Make use of C2 pointers : No

Read offset correction : 6
Overread into Lead-In and Lead-Out : No
Fill up missing offset samples with silence : Yes
Delete leading and trailing silent blocks : No
Null samples used in CRC calculations : Yes
Used interface : Installed external ASPI interface

Used output format : User Defined Encoder
Selected bitrate : 1024 kBit/s
Quality : High
Add ID3 tag : No
Command line compressor : C:\Program Files\Exact Audio Copy\FLAC\FLAC.EXE
Additional command line options : -6 -V -T "ARTIST=%a" -T "TITLE=%t" -T "ALBUM=%g" -T "DATE=%y" -T "TRACKNUMBER=%n" -T "GENRE=%m" -T "COMMENT=%e" %s -o %d


TOC of the extracted CD

Track | Start | Length | Start sector | End sector
––––––––––––––––––––––––––––-
1 | 0:00.00 | 4:54.10 | 0 | 22059
2 | 4:54.10 | 5:44.00 | 22060 | 47859
3 | 10:38.10 | 4:08.00 | 47860 | 66459
4 | 14:46.10 | 4:28.00 | 66460 | 86559
5 | 19:14.10 | 5:31.00 | 86560 | 111384
6 | 24:45.10 | 6:47.00 | 111385 | 141909
7 | 31:32.10 | 5:12.00 | 141910 | 165309
8 | 36:44.10 | 4:50.00 | 165310 | 187059
9 | 41:34.10 | 3:49.00 | 187060 | 204234
10 | 45:23.10 | 4:19.20 | 204235 | 223679


Range status and errors

Selected range

Filename E:\Users\microslav\My Documents\Upload\Valerie Joyce\The Look Of Love\Valerie Joyce - The Look Of Love.wav

Peak level 99.9 %
Range quality 100.0 %
Test CRC 34477B9F
Copy CRC 34477B9F
Copy OK

No errors occurred


AccurateRip summary

Track 1 not present in database
Track 2 not present in database
Track 3 not present in database
Track 4 not present in database
Track 5 not present in database
Track 6 not present in database
Track 7 not present in database
Track 8 not present in database
Track 9 not present in database
Track 10 not present in database

None of the tracks are present in the AccurateRip database

End of status report


foobar2000 1.3.13 / Dynamic Range Meter 1.1.1
log date: 2018-04-16 18:34:39

––––––––––––––––––––––––––––––––––––––––
Analyzed: Valerie Joyce / The Look of Love
––––––––––––––––––––––––––––––––––––––––

DR Peak RMS Duration Track
––––––––––––––––––––––––––––––––––––––––
DR12 -0.07 dB -15.52 dB 4:54 01-Walk on By
DR12 -0.09 dB -16.59 dB 5:44 02-What the World Needs Now
DR13 -0.34 dB -17.47 dB 4:08 03-Alfie
DR12 0.00 dB -15.30 dB 4:28 04-(They Long to Be) Close to You
DR12 -0.08 dB -16.72 dB 5:31 05-A House Is Not a Home
DR12 -0.09 dB -17.45 dB 6:47 06-The Look of Love
DR12 -0.36 dB -15.15 dB 5:12 07-Raindrops Keep Falling on My Head
DR12 -0.39 dB -15.18 dB 4:50 08-That's What Friends Are For
DR12 -0.29 dB -16.11 dB 3:49 09-I Say a Little Prayer for You
DR10 -2.53 dB -16.62 dB 4:19 10-Arthur's Theme (Best That You Can Do)
––––––––––––––––––––––––––––––––––––––––

Number of tracks: 10
Official DR value: DR12

Samplerate: 44100 Hz
Channels: 2
Bits per sample: 16
Bitrate: 838 kbps
Codec: FLAC
================================================================================

Valerie Joyce - The Look of Love: Music of Burt Bacharach (2007) {Chesky Records}
Valerie Joyce - The Look of Love: Music of Burt Bacharach (2007) {Chesky Records}


Thanks to the original ripper