Subcategories

W.A.S.P. - Double Live Assassins (1998) [Japanese Ed.] 2CD Repost

Posted By: Andi_Deris
W.A.S.P. - Double Live Assassins (1998) [Japanese Ed.] 2CD Repost

W.A.S.P. - Double Live Assassins (1998) [Japanese Ed.] 2CD
EAC Rip | FLAC: Image+Cue+Log | MP3 CBR 320 kbps | Scans
449 + 292 Mb | 142 + 93 Mb | 175 Mb | Time: 01:01:19 + 40:14
Victor Entertainment, Inc. | VICP-60209~10
Heavy Metal

Double Live Assassins is a live album by the American heavy metal group W.A.S.P.. It was recorded live during their K.F.D. Double Live Assassins, the 9th release by W.A.S.P., is everything a live album was meant to be. Powerful, sleazy, sweaty, and exciting, this is truly a live album that was meant to be played loud. Recorded in Switzerland, Chicago, Cleveland, and Los Angeles during W.A.S.P.'s 1997 Kill Fuck Die tour, Double Live Assassins captures all the excitement and electricity that is a W.A.S.P. concert.

W.A.S.P. - Double Live Assassins (1998) [Japanese Ed.] 2CD Repost




Disc 1

01. The Medley: (11:33)
i) On Your Knees
ii) I Don't Need No Doctor
iii) Helion
iv) Chainsaw Charlie (Murders In The New Morgue)

02. Wild Child (06:03)
03. Animal (Fuck Like A Beast) (04:13)
04. L.O.V.E. Machine (04:16)
05. Killahead (03:51)
06. I Wanna Be Somebody (06:27)
07. U (05:34)
08. The Real Me (The Who cover) (03:37)
09. Kill Your Pretty Face (06:34)
10. The Horror (09:11)

Disc 2

01. Blind In Texas (05:35)
02. The Headless Children (05:46)
03. The Idol (06:14)
04. Crimson Idol Medley: (10:37)
i) Titanic Overture
ii) The Invisible Boy
iii) I Am One
iv) The Great Misconception Of Me

05. Little Death (04:17)
06. Mean Man / Rock 'N' Roll To Death (07:44)

Produced by Blackie Lawless

The Band

• Blackie Lawless - guitar, vocals
• Chris Holmes - guitar
• Mike Duda - bass, vocals
• Stet Howland - drums, vocals

Notes

DIGITAL Remaster

Exact Audio Copy V1.0 beta 3 from 29. August 2011

EAC extraction logfile from 27. July 2014, 12:24

W.A.S.P. / Double Live Assassins [CD1] [VICP-60209]

Used drive : TSSTcorpCDDVDW SH-S223C Adapter: 0 ID: 0

Read mode : Secure
Utilize accurate stream : Yes
Defeat audio cache : Yes
Make use of C2 pointers : No

Read offset correction : 697
Overread into Lead-In and Lead-Out : No
Fill up missing offset samples with silence : Yes
Delete leading and trailing silent blocks : No
Null samples used in CRC calculations : Yes
Used interface : Installed external ASPI interface

Used output format : User Defined Encoder
Selected bitrate : 1024 kBit/s
Quality : High
Add ID3 tag : No
Command line compressor : C:\Program Files (x86)\Exact Audio Copy\Flac\flac.exe
Additional command line options : -V -8 -T "Date=%year%" -T "Genre=%genre%" %source%


TOC of the extracted CD

Track | Start | Length | Start sector | End sector
––––––––––––––––––––––––––––-
1 | 0:00.37 | 11:32.70 | 37 | 52006
2 | 11:33.32 | 6:03.05 | 52007 | 79236
3 | 17:36.37 | 4:12.58 | 79237 | 98194
4 | 21:49.20 | 4:16.12 | 98195 | 117406
5 | 26:05.32 | 3:50.45 | 117407 | 134701
6 | 29:56.02 | 6:27.03 | 134702 | 163729
7 | 36:23.05 | 5:33.57 | 163730 | 188761
8 | 41:56.62 | 3:37.20 | 188762 | 205056
9 | 45:34.07 | 6:34.25 | 205057 | 234631
10 | 52:08.32 | 9:10.55 | 234632 | 275936


Range status and errors

Selected range

Filename D:\CDRip by Ballcrusher\W.A.S.P. - Double Live Assassins [CD1] [VICP-60209].wav

Peak level 100.0 %
Extraction speed 3.4 X
Range quality 100.0 %
Test CRC 6633C6C9
Copy CRC 6633C6C9
Copy OK

No errors occurred


AccurateRip summary

Track 1 accurately ripped (confidence 2) [958B99DB] (AR v2)
Track 2 accurately ripped (confidence 2) [BBB03C5B] (AR v2)
Track 3 accurately ripped (confidence 2) [BD54E35D] (AR v2)
Track 4 accurately ripped (confidence 2) [0D4EF4E1] (AR v2)
Track 5 accurately ripped (confidence 2) [87282601] (AR v2)
Track 6 accurately ripped (confidence 2) [CF603F71] (AR v2)
Track 7 accurately ripped (confidence 2) [0D24F1F8] (AR v2)
Track 8 accurately ripped (confidence 2) [82EA54A1] (AR v2)
Track 9 accurately ripped (confidence 2) [6285CFAC] (AR v2)
Track 10 accurately ripped (confidence 2) [EC449BFF] (AR v2)

All tracks accurately ripped

End of status report

==== Log checksum 0172D5B7DD774CE5A46B23379B7AF877D2C97B7FF75CAE262F4EBB31A7D1DD2E ====

Exact Audio Copy V1.0 beta 3 from 29. August 2011

EAC extraction logfile from 28. July 2014, 8:56

W.A.S.P. / Double Live Assassins [CD2] [VICP-60210]

Used drive : TSSTcorpCDDVDW SH-S223C Adapter: 0 ID: 0

Read mode : Secure
Utilize accurate stream : Yes
Defeat audio cache : Yes
Make use of C2 pointers : No

Read offset correction : 697
Overread into Lead-In and Lead-Out : No
Fill up missing offset samples with silence : Yes
Delete leading and trailing silent blocks : No
Null samples used in CRC calculations : Yes
Used interface : Installed external ASPI interface

Used output format : User Defined Encoder
Selected bitrate : 1024 kBit/s
Quality : High
Add ID3 tag : No
Command line compressor : C:\Program Files (x86)\Exact Audio Copy\Flac\flac.exe
Additional command line options : -V -8 -T "Date=%year%" -T "Genre=%genre%" %source%


TOC of the extracted CD

Track | Start | Length | Start sector | End sector
––––––––––––––––––––––––––––-
1 | 0:00.37 | 5:34.70 | 37 | 25156
2 | 5:35.32 | 5:46.28 | 25157 | 51134
3 | 11:21.60 | 6:14.22 | 51135 | 79206
4 | 17:36.07 | 10:37.03 | 79207 | 126984
5 | 28:13.10 | 4:16.70 | 126985 | 146254
6 | 32:30.05 | 7:43.67 | 146255 | 181046


Range status and errors

Selected range

Filename D:\CDRip by Ballcrusher\W.A.S.P. - Double Live Assassins [CD2] [VICP-60210].wav

Peak level 100.0 %
Extraction speed 3.0 X
Range quality 99.9 %
Test CRC 2AF638B3
Copy CRC 2AF638B3
Copy OK

No errors occurred


AccurateRip summary

Track 1 accurately ripped (confidence 2) [4EBC59E8] (AR v2)
Track 2 accurately ripped (confidence 2) [8E3B708F] (AR v2)
Track 3 accurately ripped (confidence 2) [CF865BD1] (AR v2)
Track 4 accurately ripped (confidence 2) [E4CFED94] (AR v2)
Track 5 accurately ripped (confidence 2) [05365C8F] (AR v2)
Track 6 accurately ripped (confidence 2) [591DE487] (AR v2)

All tracks accurately ripped

End of status report

==== Log checksum C2B461B00B6FBA11C2026C8B1D5B9D82958888D05ADFE1B31635A45F3345F658 ====


Many thanks to the original uploader: Ballcrusher





Password: pass