Subcategories

Nicola Benedetti - The Silver Violin (2012) {Decca B0017609-02}

Posted By: ruskaval
Nicola Benedetti - The Silver Violin (2012) {Decca B0017609-02}

Nicola Benedetti - The Silver Violin (2012) {Decca B0017609-02}
EAC rip (secure mode) | FLAC (tracks)+CUE+LOG -> 372 Mb | MP3 @320 -> 182 Mb
Full Artwork @ 300 dpi (png) -> 65 Mb | 5% repair rar
© 2012 Decca Music | B0017609-02
Classical / Classical Crossover / Movie Themes / Violin

"Scotland's sweetheart" and onetime BBC Young Musician of the Year Nicola Benedetti follows up her 2011 release Italia with this collection of music from the silver screen and beyond. Centered around Erich Korngold's lush Violin Concerto, the album features film music both old and new, such as John Williams' Schindler's List, Howard Shore's Eastern Promises, and Dario Marianelli's Jane Eyre. It also includes other classical works by Korngold, Mahler, and Shostakovich.
Nicola Benedetti - The Silver Violin (2012) {Decca B0017609-02}

Acclaimed as one of the leading violinists of her generation, best-selling violin virtuoso Nicola Benedetti turns the spotlight on Hollywood in this collection of original violin music written for the silver screen.

Argentinian tango casts its sultry spell in the form of Carlos Gardels swooning, seductive Por una cabeza, famously used in the Al Pacino film Scent of a Woman.

Taking as its center piece Korngolds melodious Violin Concerto a work in which the emigre Austrian composer used themes from some of his most famous movie scores The Silver Violin celebrates the film music of composers from both East and West.

This unique collection includes the poignant lament from John Williams Oscar-winning score for Schindlers List, the achingly beautiful My Edward and I from Dario Marianellis 2011 music for Jane Eyre, and extracts from Howard Shores Golden Globe-nominated score for Eastern Promises, which Nicola herself performed on the original soundtrack.

Dmitri Shostakovich stakes a claim as the Soviet Union s greatest film composer with his much-loved Romance from The Gadfly, as well as the lyrical Andante from The Counterplan.

Contemporary UK cinema is represented by the haunting main theme and specially-composed Fantasy for Violin and Orchestra from the 2004 hit Ladies in Lavender.
Nicola Benedetti - The Silver Violin (2012) {Decca B0017609-02}


Performers

Nicola Benedetti - violin
Orchestra: The Bournemouth Symphony Orchestra
Conductor: Kirill Karabits

Track Listing

01 - John Williams - Schindler's List - Main Theme
02 - Erich Wolfgang Korngold - Tanzlied Des Pierrot - Die Tote Stadt
03 - Carlos Gardel - Por una Cabeza
04 - Dmitri Shostakovich - The Gadfly, Op. 97 - 3. Youth (Romance)
05 - Erich Wolfgang Korngold - Violin Concerto in D major Op35 - 1. Moderato nobile
06 - Erich Wolfgang Korngold - Violin Concerto in D major Op35 - 2. Romance Andante
07 - Erich Wolfgang Korngold - Violin Concerto in D major Op35 - 3. Finale Allegro assai vivace
08 - Nigel Hess - Ladies in Lavender - Main Theme
09 - Dmitri Shostakovich - The Counterplan, Op. 33 - 2. Andante
10 - Dario Marianelli - My Edward and I
11 - Howard Shore - Concertino, 1. Eastern Promises (excerpt)
12 - Howard Shore - Concertino, 2. Tatiana (excerpt)
13 - Gustav Mahler - Piano Quartet in A minor 'La Mineur'
14 - Dmitri Shostakovich - Prelude (Five Pieces for 2 violins and piano, arr. Levon Atovmian)
15 - Erich Wolfgang Korngold - Mariettas Lied (Die tote Stadt, Op.12)

Exact Audio Copy V1.1 from 23. June 2015

EAC extraction logfile from 2. August 2015, 17:02

Nicola Benedetti / Silver Violin

Used drive : ASUS DRW-24B1ST i Adapter: 1 ID: 0

Read mode : Secure
Utilize accurate stream : Yes
Defeat audio cache : Yes
Make use of C2 pointers : No

Read offset correction : 6
Overread into Lead-In and Lead-Out : No
Fill up missing offset samples with silence : Yes
Delete leading and trailing silent blocks : No
Null samples used in CRC calculations : Yes
Used interface : Native Win32 interface for Win NT & 2000
Gap handling : Appended to previous track

Used output format : User Defined Encoder
Selected bitrate : 128 kBit/s
Quality : High
Add ID3 tag : No
Command line compressor : C:\Program Files (x86)\Exact Audio Copy\Flac\flac.exe
Additional command line options : -8 -V -T "ARTIST=%artist%" -T "TITLE=%title%" -T "ALBUM=%albumtitle%" -T "DATE=%year%" -T "TRACKNUMBER=%tracknr%" -T "TOTALTRACKS=%numtracks%" -T "GENRE=%genre%" -T "ALBUMARTIST=%albumartist%" -T "ALBUM ARTIST=%albumartist%" -T "COMMENT=EAC Secure Mode, Test & Copy, AccurateRip, FLAC -8" %source%


TOC of the extracted CD

Track | Start | Length | Start sector | End sector
––––––––––––––––––––––––––––-
1 | 0:00.00 | 3:51.53 | 0 | 17377
2 | 3:51.53 | 4:19.71 | 17378 | 36873
3 | 8:11.49 | 3:53.63 | 36874 | 54411
4 | 12:05.37 | 3:44.43 | 54412 | 71254
5 | 15:50.05 | 9:49.14 | 71255 | 115443
6 | 25:39.19 | 8:25.01 | 115444 | 153319
7 | 34:04.20 | 7:31.55 | 153320 | 187199
8 | 41:36.00 | 3:28.30 | 187200 | 202829
9 | 45:04.30 | 2:43.45 | 202830 | 215099
10 | 47:48.00 | 4:59.12 | 215100 | 237536
11 | 52:47.12 | 2:07.20 | 237537 | 247081
12 | 54:54.32 | 3:08.24 | 247082 | 261205
13 | 58:02.56 | 11:49.22 | 261206 | 314402
14 | 69:52.03 | 2:32.59 | 314403 | 325861
15 | 72:24.62 | 5:29.42 | 325862 | 350578


Track 1

Filename D:\_Post\Silver\01 - John Williams - Schindler's List - Main Theme.wav

Pre-gap length 0:00:02.00

Peak level 76.3 %
Extraction speed 4.6 X
Track quality 99.9 %
Test CRC A225ED37
Copy CRC A225ED37
Accurately ripped (confidence 42) [12F2A27E] (AR v2)
Copy OK

Track 2

Filename D:\_Post\Silver\02 - Erich Wolfgang Korngold - Tanzlied Des Pierrot - Die Tote Stadt.wav

Pre-gap length 0:00:02.57

Peak level 71.7 %
Extraction speed 5.0 X
Track quality 99.9 %
Test CRC AA6DF889
Copy CRC AA6DF889
Accurately ripped (confidence 41) [98F12DCA] (AR v2)
Copy OK

Track 3

Filename D:\_Post\Silver\03 - Carlos Gardel - Por una Cabeza.wav

Peak level 74.5 %
Extraction speed 6.4 X
Track quality 100.0 %
Test CRC 6D9508C9
Copy CRC 6D9508C9
Accurately ripped (confidence 43) [1F010EDA] (AR v2)
Copy OK

Track 4

Filename D:\_Post\Silver\04 - Dmitri Shostakovich - The Gadfly, Op. 97 - 3. Youth (Romance).wav

Peak level 80.6 %
Extraction speed 6.6 X
Track quality 100.0 %
Test CRC 75BF65CC
Copy CRC 75BF65CC
Accurately ripped (confidence 42) [CA568FD4] (AR v2)
Copy OK

Track 5

Filename D:\_Post\Silver\05 - Erich Wolfgang Korngold - Violin Concerto in D major Op35 - 1. Moderato nobile.wav

Pre-gap length 0:00:03.28

Peak level 94.8 %
Extraction speed 7.8 X
Track quality 100.0 %
Test CRC 09342059
Copy CRC 09342059
Accurately ripped (confidence 42) [7CC10641] (AR v2)
Copy OK

Track 6

Filename D:\_Post\Silver\06 - Erich Wolfgang Korngold - Violin Concerto in D major Op35 - 2. Romance Andante.wav

Pre-gap length 0:00:04.66

Peak level 42.3 %
Extraction speed 8.2 X
Track quality 100.0 %
Test CRC 8F16F9EB
Copy CRC 8F16F9EB
Accurately ripped (confidence 43) [EEF67476] (AR v2)
Copy OK

Track 7

Filename D:\_Post\Silver\07 - Erich Wolfgang Korngold - Violin Concerto in D major Op35 - 3. Finale Allegro assai vivace.wav

Peak level 94.2 %
Extraction speed 7.7 X
Track quality 100.0 %
Test CRC 9F88516E
Copy CRC 9F88516E
Accurately ripped (confidence 42) [A2CFAE54] (AR v2)
Copy OK

Track 8

Filename D:\_Post\Silver\08 - Nigel Hess - Ladies in Lavender - Main Theme.wav

Pre-gap length 0:00:07.46

Peak level 94.3 %
Extraction speed 8.1 X
Track quality 100.0 %
Test CRC EAFC4E61
Copy CRC EAFC4E61
Accurately ripped (confidence 42) [981D8436] (AR v2)
Copy OK

Track 9

Filename D:\_Post\Silver\09 - Dmitri Shostakovich - The Counterplan, Op. 33 - 2. Andante.wav

Pre-gap length 0:00:01.61

Peak level 69.8 %
Extraction speed 8.7 X
Track quality 100.0 %
Test CRC 5A6B4D65
Copy CRC 5A6B4D65
Accurately ripped (confidence 43) [17CC6096] (AR v2)
Copy OK

Track 10

Filename D:\_Post\Silver\10 - Dario Marianelli - My Edward and I.wav

Pre-gap length 0:00:02.16

Peak level 35.5 %
Extraction speed 8.0 X
Track quality 99.9 %
Test CRC A926C3AA
Copy CRC A926C3AA
Accurately ripped (confidence 43) [B2478776] (AR v2)
Copy OK

Track 11

Filename D:\_Post\Silver\11 - Howard Shore - Concertino, 1. Eastern Promises (excerpt).wav

Pre-gap length 0:00:02.49

Peak level 57.6 %
Extraction speed 8.3 X
Track quality 100.0 %
Test CRC 6F529A48
Copy CRC 6F529A48
Accurately ripped (confidence 43) [17CF2984] (AR v2)
Copy OK

Track 12

Filename D:\_Post\Silver\12 - Howard Shore - Concertino, 2. Tatiana (excerpt).wav

Peak level 67.9 %
Extraction speed 9.1 X
Track quality 100.0 %
Test CRC CAE47B84
Copy CRC CAE47B84
Accurately ripped (confidence 44) [95095C90] (AR v2)
Copy OK

Track 13

Filename D:\_Post\Silver\13 - Gustav Mahler - Piano Quartet in A minor 'La Mineur'.wav

Peak level 83.5 %
Extraction speed 10.6 X
Track quality 100.0 %
Test CRC FE8D0F52
Copy CRC FE8D0F52
Accurately ripped (confidence 42) [6B4B0239] (AR v2)
Copy OK

Track 14

Filename D:\_Post\Silver\14 - Dmitri Shostakovich - Prelude (Five Pieces for 2 violins and piano, arr. Levon Atovmian).wav

Pre-gap length 0:00:02.31

Peak level 44.4 %
Extraction speed 5.8 X
Track quality 99.9 %
Test CRC DCDD3AC5
Copy CRC DCDD3AC5
Accurately ripped (confidence 43) [8E92FB2F] (AR v2)
Copy OK

Track 15

Filename D:\_Post\Silver\15 - Erich Wolfgang Korngold - Mariettas Lied (Die tote Stadt, Op.12).wav

Peak level 80.2 %
Extraction speed 6.0 X
Track quality 99.8 %
Test CRC 4F489B6F
Copy CRC 4F489B6F
Accurately ripped (confidence 42) [9669243A] (AR v2)
Copy OK


All tracks accurately ripped

No errors occurred

End of status report

–– CUETools DB Plugin V2.1.6

[CTDB TOCID: XAq3AX1oGlT6n3FiiLnKgjVcoMM-] found
Submit result: already submitted
Track | CTDB Status
1 | (42/42) Accurately ripped
2 | (41/42) Accurately ripped
3 | (41/42) Accurately ripped
4 | (42/42) Accurately ripped
5 | (41/42) Accurately ripped
6 | (41/42) Accurately ripped
7 | (42/42) Accurately ripped
8 | (41/42) Accurately ripped
9 | (42/42) Accurately ripped
10 | (42/42) Accurately ripped
11 | (42/42) Accurately ripped
12 | (42/42) Accurately ripped
13 | (41/42) Accurately ripped
14 | (41/42) Accurately ripped
15 | (41/42) Accurately ripped


==== Log checksum 6C9E8679714771698C4F7E1697E3248674A90594FC79E20543EF2721FB37B00B ====


Nicola Benedetti - The Silver Violin (2012) {Decca B0017609-02}



===