Marvel's Guardians of the Galaxy S03E08

Posted By: Tavaz
1080p (FullHD) / WEB-DL IMDb
Marvel's Guardians of the Galaxy S03E08

Marvel's Guardians of the Galaxy S03E08
WEB-DL | MKV | 1920x1080 | English | H264 @ 5031 kbps | AC-3 @ 384 kbps | 22 min 3 s | 855 MiB
Subtitles: English
Genre: Animation

Peter Quill is Star-Lord, the brash adventurer who, to save the universe from its greatest threats, joins forces with a quartet of disparate misfits — fan-favorite Rocket Raccoon, a tree-like humanoid named Groot, the enigmatic, expert fighter Gamora and the rough edged warrior Drax the Destroyer.

c78ad29ef2724ce591781035f7cc00af.mkv (854.8 MB)



General
Unique ID : 12225194375683868013390386799838537449 (0x9327C9E6D6202BC12E6C4031AF4A6E9)
Complete name : ./c78ad29ef2724ce591781035f7cc00af.mkv
Format : Matroska
Format version : Version 4 / Version 2
File size : 855 MiB
Duration : 22 min 3 s
Overall bit rate : 5 418 kb/s
Encoded date : UTC 2018-04-16 14:21:32
Writing application : mkvmerge v22.0.0 ('At The End Of The World') 64-bit
Writing library : libebml v1.3.5 + libmatroska v1.4.8

Video
ID : 1
Format : AVC
Format/Info : Advanced Video Codec
Format profile : High@L4
Format settings : CABAC / 4 Ref Frames
Format settings, CABAC : Yes
Format settings, RefFrames : 4 frames
Codec ID : V_MPEG4/ISO/AVC
Duration : 22 min 3 s
Bit rate : 5 032 kb/s
Width : 1 920 pixels
Height : 1 080 pixels
Display aspect ratio : 16:9
Frame rate mode : Constant
Frame rate : 23.976 (24000/1001) FPS
Color space : YUV
Chroma subsampling : 4:2:0
Bit depth : 8 bits
Scan type : Progressive
Bits/(Pixel*Frame) : 0.101
Stream size : 794 MiB (93%)
Language : English
Default : Yes
Forced : No
Color range : Limited
Color primaries : BT.709
Transfer characteristics : BT.709
Matrix coefficients : BT.709

Audio
ID : 2
Format : AC-3
Format/Info : Audio Coding 3
Format settings, Endianness : Big
Codec ID : A_AC3
Duration : 22 min 3 s
Bit rate mode : Constant
Bit rate : 384 kb/s
Channel(s) : 6 channels
Channel positions : Front: L C R, Side: L R, LFE
Sampling rate : 48.0 kHz
Frame rate : 31.250 FPS (1536 SPF)
Bit depth : 16 bits
Compression mode : Lossy
Stream size : 60.6 MiB (7%)
Language : English
Service kind : Complete Main
Default : Yes
Forced : No

Text
ID : 3
Format : UTF-8
Codec ID : S_TEXT/UTF8
Codec ID/Info : UTF-8 Plain Text
Duration : 21 min 25 s
Bit rate : 79 b/s
Count of elements : 440
Stream size : 12.5 KiB (0%)
Title : SDH
Language : English
Default : No
Forced : No





Marvel's Guardians of the Galaxy S03E08


Marvel's Guardians of the Galaxy S03E08


Marvel's Guardians of the Galaxy S03E08


Marvel's Guardians of the Galaxy S03E08


Marvel's Guardians of the Galaxy S03E08

All episodes